<?xml version="1.0" standalone="no"?>
<!DOCTYPE svg PUBLIC "-//W3C//DTD SVG 1.1//EN" "http://www.w3.org/Graphics/SVG/1.1/DTD/svg11.dtd" >
<svg xmlns="http://www.w3.org/2000/svg">
<metadata></metadata>
<defs>
<font id="geosanslightregular" horiz-adv-x="1683" >
<font-face units-per-em="2048" ascent="1638" descent="-410" />
<missing-glyph horiz-adv-x="522" />
<glyph horiz-adv-x="0" />
<glyph horiz-adv-x="682" />
<glyph horiz-adv-x="741" d="M166 1087q84 -90 221 -90q141 0 219 90l-37 46q-76 -76 -174 -76q-106 0 -186 80z" />
<glyph horiz-adv-x="636" d="M182 1083q2 -31 21 -49q25 -18 47 -18q67 -1 67 67q-16 68 -67 68q-68 -12 -68 -68z" />
<glyph horiz-adv-x="606" d="M143 1102q0 -68 51.5 -119t118.5 -51q68 0 119 51t51 119t-51 119t-119 51t-119 -51.5t-51 -118.5zM186 1104q0 49 39 88t88 39t88 -39t39 -88t-39 -88t-88 -39t-88 39t-39 88z" />
<glyph horiz-adv-x="542" d="M143 -131v-45q0 -55 35 -94q33 -37 88 -37l39 4l37 12q37 13 55 33v82l-47 -31q-31 -12 -51 -12q-35 0 -49 20q-12 27 -12 54q0 33 12 67l39 78h-94q-39 -74 -41 -86z" />
<glyph horiz-adv-x="774" d="M137 1145l248 -246l248 246l-43 45l-205 -203l-205 203z" />
<glyph unicode="&#xd;" horiz-adv-x="376" d="M147 0h84v846h-84v-846z" />
<glyph d="M102 731q0 -332 211 -543q209 -209 541 -208q221 0 395 100l285 -287h113l-330 330q291 209 291 608q0 332 -211 543q-213 209 -543 209q-332 0 -543 -211q-209 -209 -209 -541zM186 731q0 293 189 481q184 188 479 189q295 0 483 -189q180 -180 187 -458l-11 10 q-51 51 -118 51q-68 0 -119 -51t-51 -119t51 -119t119 -51q57 0 98 33q-61 -201 -238 -324l-270 271h-108l309 -312q-147 -80 -332 -80q-293 0 -481 189q-186 186 -187 479zM487 645q0 -68 51.5 -119t118.5 -51q68 0 119 51t51 119t-51 119t-119 51t-119 -51t-51 -119z M530 647q0 49 39 88t88 39t88 -39t39 -88t-38.5 -88t-88.5 -39q-49 0 -88 39t-39 88zM633 612q0 -18 13 -31.5t32 -13.5q18 0 31.5 13.5t13.5 31.5t-13.5 31.5t-31.5 13.5t-31.5 -13.5t-13.5 -31.5zM1268 647q0 49 39 88t88 39t88 -39q33 -33 39 -76q-2 -12 -3 -25t-3 -26 q-8 -25 -33 -49q-39 -39 -88 -39t-88 39t-39 88zM1372 606q0 -18 13.5 -31.5t31.5 -13.5t31.5 13.5t13.5 31.5t-13 31.5t-32 13.5q-18 0 -31.5 -13.5t-13.5 -31.5z" />
<glyph horiz-adv-x="964" d="M63 762h115v-762h84v762h303v-762h82v762h258v84h-258v485q0 92 -74 148q-66 49 -161 49q-98 0 -166 -55.5t-68 -151.5v-475h-115v-84zM262 846v461q0 139 150 139q154 0 153 -135v-465h-303z" />
<glyph horiz-adv-x="940" d="M63 762h115v-762h84v762h313v-762h82v762h201v84h-201v461q0 76 39 106q31 25 82 25l68 -6l39 -7v80l-54 8q-8 2 -20 3.5t-31 1.5q-61 0 -114 -29q-63 -33 -70 -90q-55 76 -184 76q-106 0 -170 -61.5t-64 -166.5v-401h-115v-84zM262 846v391q0 156 150 156q55 0 100 -27 q45 -25 63 -68v-452h-313z" />
<glyph unicode=" "  horiz-adv-x="522" />
<glyph unicode="&#x09;" horiz-adv-x="522" />
<glyph unicode="&#xa0;" horiz-adv-x="522" />
<glyph unicode="!" horiz-adv-x="417" d="M137 66q0 -74 74 -74q74 13 74 74q-6 35 -23 51q-23 23 -51 22q-74 -12 -74 -73zM168 303h82v1159h-82v-1159z" />
<glyph unicode="&#x22;" horiz-adv-x="552" d="M125 1489l20 -328h43l21 328h-84zM354 1489l23 -328h41l20 328h-84z" />
<glyph unicode="#" horiz-adv-x="1107" d="M66 721h266l-62 -258h49l64 258h287l-68 -268h51l66 268h274l17 51h-279l57 236h265l16 49h-268l61 260h-49l-63 -260h-285l61 260h-49l-63 -260h-285l-16 -49h288l-57 -236h-262zM395 772l56 236h288l-57 -236h-287z" />
<glyph unicode="$" horiz-adv-x="970" d="M74 301q37 -150 143 -233q109 -84 260 -84v-109h82v111q174 0 270 123q86 110 86 290q0 285 -356 424v563q150 -20 217 -143l78 35q-96 190 -295 190v109h-82v-109q-141 0 -233 -98q-92 -96 -92 -237q0 -152 92 -240q70 -70 233 -127v-696q-250 0 -319 260zM238 1124 q0 106 65 179q61 68 174 83v-530q-113 45 -166 96q-74 68 -73 172zM559 70v663q272 -111 272 -334q0 -141 -63 -229q-70 -100 -209 -100z" />
<glyph unicode="%" horiz-adv-x="1087" d="M88 1171q0 -98 78 -176q76 -76 176 -75q104 0 182 73q74 69 74 178q0 104 -76 180t-180 76t-180 -75q-74 -78 -74 -181zM127 0h82l795 1462h-82zM172 1171q0 70 51 121q49 51 119 51t121 -51t51 -121q0 -68 -51 -118q-59 -49 -121 -49q-68 0 -119 51q-51 49 -51 116z M498 236q0 -98 77 -177q76 -76 177 -75q104 0 182 73q74 70 74 179q0 104 -76 180t-180 76t-181 -76q-74 -78 -73 -180zM582 236q0 70 51 120q49 51 119 52q70 0 121 -51t51 -121q0 -66 -54 -119q-53 -49 -118 -49q-68 0 -119 51q-51 49 -51 117z" />
<glyph unicode="&#x26;" horiz-adv-x="1232" d="M76 313q0 -143 92 -231q94 -90 242 -90q213 0 462 201l129 -193h97l-162 244l217 176l-45 59l-213 -174l-320 486l150 102q180 123 180 266q0 139 -86 213t-227 74q-123 0 -211 -82q-86 -80 -86 -203q0 -66 31 -129l61 -104l82 -123l-231 -170q-162 -150 -162 -322z M160 313q0 137 131 267q27 27 80 66.5t137 96.5l323 -489q-35 -29 -63.5 -48.5t-50.5 -33.5q-158 -100 -305 -100q-111 0 -181 67q-72 66 -71 174zM375 1161q0 88 65 150q66 59 154 59q106 0 172 -53q63 -52 63 -158q-2 -37 -10 -55l-28 -53q-20 -29 -46 -52.5t-55 -44.5 l-155 -104l-80 121l-58 92q-23 39 -22 98z" />
<glyph unicode="'" horiz-adv-x="335" d="M125 1462l20 -325h45l21 325h-86z" />
<glyph unicode="(" horiz-adv-x="376" d="M78 709q0 -80 8 -172.5t25 -196.5q10 -53 17 -88l11 -55q8 -39 13.5 -66t9.5 -43q14 -55 31.5 -108.5t37.5 -106.5h72q-154 406 -153 836q0 72 8 162t24 196q20 135 50 253t71 224h-72q-154 -410 -153 -835z" />
<glyph unicode=")" horiz-adv-x="397" d="M111 -127h71q154 396 154 836q0 90 -7 179t-22 181q-41 252 -125 475h-71q154 -422 153 -835q0 -78 -8 -168t-25 -193q-20 -129 -49.5 -246.5t-70.5 -228.5z" />
<glyph unicode="*" horiz-adv-x="591" d="M27 1143q0 -49 43 -49q66 12 114 61l97 92l-39 -135q-6 -16 -6 -65q0 -78 57 -76q49 2 49 80l-10 90l-29 106l100 -96q55 -53 109 -53q47 0 47 43q-12 59 -102 92q-20 10 -56 18.5t-88 18.5l152 47q94 47 94 82q-4 47 -47 47q-102 -23 -209 -156q18 31 19 56l14 63l10 84 q0 78 -53 78q-55 -10 -55 -78l12 -100l31 -103l-97 99q-57 57 -112 57q-45 -12 -45 -51q0 -49 96 -86l67 -25l80 -14q-244 -61 -243 -127z" />
<glyph unicode="+" horiz-adv-x="774" d="M135 500h209v-209h94v209h209v84h-209v209h-94v-209h-209v-84z" />
<glyph unicode="," horiz-adv-x="366" d="M94 -193l27 -18l196 322l-71 30z" />
<glyph unicode="-" horiz-adv-x="555" d="M37 500h432v84h-432v-84z" />
<glyph unicode="." horiz-adv-x="231" d="M37 55q2 -31 20 -49q25 -18 47 -18q68 -1 68 67q-16 68 -68 68q-68 -12 -67 -68z" />
<glyph unicode="/" horiz-adv-x="587" d="M47 0h84l426 1493h-80z" />
<glyph unicode="0" horiz-adv-x="1138" d="M37 743q0 -291 121 -503q147 -260 415 -260q270 0 418 258q119 210 119 505q0 289 -121 506q-147 260 -416 260q-268 0 -415 -260q-121 -213 -121 -506zM127 743q0 276 113 469q127 213 333 213q231 0 353 -237q96 -189 96 -445q0 -281 -113 -467q-125 -211 -336 -210 q-227 0 -350 237q-96 188 -96 440z" />
<glyph unicode="1" horiz-adv-x="1116" d="M356 1378h248v-1378h84v1462h-276z" />
<glyph unicode="2" horiz-adv-x="1116" d="M125 0h885v84h-701l420 475q57 66 94 110t56 66q133 172 133 350q0 174 -125 281q-125 109 -299 109q-203 0 -326 -136q-92 -104 -106 -211h92q23 94 80 158q94 106 260 107q135 0 237 -88q102 -90 103 -220q0 -133 -86 -256z" />
<glyph unicode="3" horiz-adv-x="1116" d="M152 309q35 -152 139 -235q109 -84 260 -84q182 0 301 112q119 111 119 293q0 307 -287 393q274 61 274 334q0 170 -112 271q-113 102 -281 102q-162 0 -268 -92q-106 -90 -125 -250h96q51 258 297 258q129 0 211 -82q82 -80 82 -207q0 -133 -76 -202q-78 -72 -207 -72 h-86v-121h86q94 0 185 -72q119 -94 119 -260q0 -133 -97 -229q-96 -92 -231 -92q-104 0 -193 67q-90 68 -116 168h-90z" />
<glyph unicode="4" horiz-adv-x="1116" d="M94 279h752v-279h86v279h170v81h-170v1123zM244 360l602 863v-863h-602z" />
<glyph unicode="5" horiz-adv-x="1116" d="M55 287q129 -307 477 -307q231 0 377 153q144 151 144 389q0 233 -164 373q-160 135 -357 123l-86 -6l-81 -11l88 377h495v84h-561l-145 -567q76 29 145 29q31 8 49 8h31l65 2q170 6 299 -105q137 -117 138 -307q0 -195 -123 -325q-123 -133 -314 -134q-160 0 -260 74 q-80 59 -139 180z" />
<glyph unicode="6" horiz-adv-x="1116" d="M59 469q0 -221 140 -365q139 -139 362 -139q217 0 360.5 143.5t143.5 360.5q0 213 -145 358q-143 143 -359 144l-92 -8l-88 -25l-86 -43l311 567h-96l-367 -657q-18 -35 -34.5 -73t-26.5 -81q-10 -35 -14.5 -57.5t-6.5 -34.5t-2 -24v-21v-45zM141 469q0 174 123 297 t297 123q176 0 299 -125q123 -127 123 -295q0 -180 -121 -301t-301 -121t-301 121q-119 119 -119 301z" />
<glyph unicode="7" horiz-adv-x="1116" d="M49 33l70 -53l973 1482h-1029v-84h873z" />
<glyph unicode="8" horiz-adv-x="1116" d="M135 389q0 -184 121 -301q121 -115 307 -115q184 0 305 117q119 117 119 299q0 162 -100 268q-70 76 -180 117q109 35 167 127q61 94 62 209q0 168 -104.5 272.5t-272.5 104.5q-166 0 -270 -107q-104 -104 -105 -270q0 -109 60 -205q61 -100 164 -131q-129 -49 -201 -149 q-72 -102 -72 -236zM217 389q0 137 102 240q51 49 110.5 78.5t129.5 29.5q72 0 132.5 -29.5t111.5 -80.5q102 -99 102 -238q0 -145 -100 -239q-96 -94 -246 -95q-147 0 -246 99q-96 96 -96 235zM266 1110q0 127 84 211t209 84q127 0 211 -84t84 -211t-84 -211 q-41 -41 -93 -65.5t-118 -24.5q-63 0 -115.5 26.5t-93.5 67.5q-84 84 -84 207z" />
<glyph unicode="9" horiz-adv-x="1116" d="M61 969q0 -217 144 -361q143 -141 360 -141l92 8l88 25l86 43l-290 -527l77 -36l365 653q20 37 35.5 74.5t25.5 78.5q12 47 17.5 93.5t5.5 89.5q0 217 -143 360q-141 143 -359 144q-217 0 -360.5 -143.5t-143.5 -360.5zM143 969q0 180 121 301t301 121t301 -121 q119 -119 119 -301q0 -178 -121 -299t-299 -121q-182 0 -301 123q-121 125 -121 297z" />
<glyph unicode=":" horiz-adv-x="333" d="M104 55q2 -31 21 -49q25 -18 47 -18q68 -1 68 67q-16 68 -68 68q-68 -12 -68 -68zM104 659q2 -31 21 -49q25 -18 47 -18q68 -1 68 67q-16 68 -68 68q-68 -12 -68 -68z" />
<glyph unicode=";" horiz-adv-x="417" d="M84 -193l27 -18l196 322l-71 30zM143 659q2 -31 21 -49q25 -18 47 -18q68 -1 68 67q-16 68 -68 68q-68 -12 -68 -68z" />
<glyph unicode="&#x3c;" horiz-adv-x="647" d="M66 539l514 -314v92l-365 222l365 221v92z" />
<glyph unicode="=" horiz-adv-x="606" d="M76 375h463v82h-463v-82zM76 625h463v84h-463v-84z" />
<glyph unicode="&#x3e;" horiz-adv-x="647" d="M94 225l514 314l-514 313v-92l363 -221l-363 -222v-92z" />
<glyph unicode="?" horiz-adv-x="960" d="M94 1210l78 -34q59 102 115 147q94 78 217 78q119 0 203 -53q94 -61 94 -177q0 -88 -72 -172q-16 -20 -55 -50.5t-99 -76.5l-174 -129q-143 -106 -143 -239q0 -92 65.5 -145.5t145.5 -47.5l59 4l47 13q49 23 72 45l-49 67q-53 -43 -129 -43q-51 0 -86 29t-35 78 q0 106 103 180l172 125q74 53 116.5 86t53.5 47q92 104 92 229q0 154 -117 238q-104 74 -264 74q-297 0 -410 -273zM387 66q12 -72 72 -72q71 0 71 72q-12 72 -71 71q-72 -12 -72 -71z" />
<glyph unicode="@" horiz-adv-x="1220" d="M70 403q0 -219 135 -366q145 -164 405 -164q127 0 226 39q100 37 147 90l-39 39q-49 -57 -156 -90q-92 -25 -174 -25q-217 0 -354 131q-137 129 -137 346q0 201 143 336q139 137 346 138q203 0 342 -125q147 -129 148 -324q0 -106 -41 -174q-51 -90 -127 -90 q-41 0 -66 31q-31 43 -24 110l26 334h-51l-8 -111q-55 123 -211 123q-121 0 -203 -80q-80 -80 -80 -200q0 -121 62 -191q63 -72 180 -71q166 0 232 116q6 -39 34 -73q37 -43 101 -43q119 0 180 106q49 86 49 213q0 217 -164 363q-158 139 -379 139q-227 0 -384.5 -151.5 t-157.5 -375.5zM373 371q0 94 65 159q68 68 162 68q86 0 135 -55t49 -142q0 -104 -61 -172q-57 -66 -164 -65q-186 0 -186 207z" />
<glyph unicode="A" horiz-adv-x="1296" d="M63 0h82l170 438h666l168 -438h84l-586 1509zM348 522l299 774l299 -774h-598z" />
<glyph unicode="B" horiz-adv-x="1144" d="M156 0h456q193 0 326 119q133 117 133 305q0 158 -92 266q-94 109 -248 139q158 90 158 283q0 168 -107 262q-100 88 -270 88h-356v-1462zM238 84v678h376q158 0 263 -90q112 -94 112 -248q0 -152 -110 -246q-109 -94 -265 -94h-376zM238 846v532h280q121 0 205 -73 q82 -70 82 -193q0 -119 -78 -192.5t-197 -73.5h-292z" />
<glyph unicode="C" horiz-adv-x="1437" d="M102 731q0 -332 211 -543q208 -208 538 -208h3q29 0 55.5 1t48.5 3q197 18 312 102l98 72v96q-119 -86 -197 -125q-135 -66 -317 -66q-293 0 -481 189q-186 186 -187 479q0 293 188.5 481.5t479.5 188.5q170 0 326 -64q102 -43 188 -114v104q-84 66 -174 100 q-152 55 -340 56q-332 0 -543 -211q-209 -209 -209 -541z" />
<glyph unicode="D" horiz-adv-x="1409" d="M156 0h487q297 0 481 221q172 209 172 512q0 301 -174 508q-184 221 -479 221h-487v-1462zM238 84v1296h405q260 0 420 -196q149 -183 149 -451q0 -301 -178 -481q-166 -168 -391 -168h-405z" />
<glyph unicode="E" horiz-adv-x="968" d="M145 0h703v84h-619v672h619v90h-619v532h619v84h-703v-1462z" />
<glyph unicode="F" horiz-adv-x="886" d="M156 0h82v762h553v84h-553v532h553v84h-635v-1462z" />
<glyph unicode="G" d="M102 731q0 -332 211 -543q208 -208 538 -208h3q348 0 559 223q195 205 195 504h-576v-84h484q-20 -197 -164 -353q-188 -207 -498 -207q-289 0 -481 189q-188 188 -189 479q0 289 190.5 479.5t479.5 190.5q354 0 551 -271l68 52q-225 301 -619 301q-328 0 -541 -213 q-211 -211 -211 -539z" />
<glyph unicode="H" horiz-adv-x="1259" d="M156 0h82v762h804v-762h84v1462h-84v-616h-804v616h-82v-1462z" />
<glyph unicode="I" horiz-adv-x="393" d="M158 0h82v1462h-82v-1462z" />
<glyph unicode="J" horiz-adv-x="645" d="M61 117q72 -133 226 -133q235 0 235 307v1171h-84v-1167q0 -227 -153 -227q-100 0 -152 94z" />
<glyph unicode="K" horiz-adv-x="1073" d="M135 0h84v694l12 13l705 -707h117l-762 764l700 698h-119l-653 -649v649h-84v-1462z" />
<glyph unicode="L" horiz-adv-x="729" d="M156 0h493v84h-411v1378h-82v-1462z" />
<glyph unicode="M" horiz-adv-x="1847" d="M47 0h84l313 1231l482 -1268l481 1266l311 -1229h86l-381 1507l-497 -1306l-498 1304z" />
<glyph unicode="N" horiz-adv-x="1464" d="M158 0h82v1241l1093 -1266v1487h-84v-1269l-1091 1280v-1473z" />
<glyph unicode="O" d="M102 731q0 -332 211 -543q208 -208 538 -208h3q332 0 543 210q211 209 211 541t-211 543q-213 209 -543 209q-332 0 -543 -211q-209 -209 -209 -541zM186 731q0 293 188.5 481.5t479.5 188.5q295 0 483 -189q187 -186 187 -481q0 -297 -187 -483q-188 -184 -483 -185 q-293 0 -481 189q-186 186 -187 479z" />
<glyph unicode="P" horiz-adv-x="1003" d="M156 0h82v731h274q168 0 283 103q114 98 114 266q0 166 -114.5 264t-282.5 98h-356v-1462zM238 815v563h272q137 0 221 -69q94 -76 94 -209t-90 -211q-90 -74 -225 -74h-272z" />
<glyph unicode="Q" d="M119 731q0 -332 211 -543q208 -208 537 -208h3q332 0 543 210q211 209 211 541t-211 543q-213 209 -543 209q-332 0 -542 -211q-209 -209 -209 -541zM203 731q0 293 188 481q184 188 479 189q295 0 484 -189q186 -186 186 -481q0 -297 -186 -483q-188 -184 -484 -185 q-293 0 -481 189q-186 186 -186 479zM872 -113v-84h433v84h-433z" />
<glyph unicode="R" horiz-adv-x="991" d="M156 0h82v731h157l465 -731h98l-469 731q88 0 162 21.5t128.5 66.5t84 115t29.5 166q0 88 -32 155.5t-85 113.5t-127 69.5t-155 23.5h-338v-1462zM238 815v563h254q66 0 123 -17.5t100 -51t67.5 -85.5t24.5 -122q0 -139 -81 -213t-212 -74h-276z" />
<glyph unicode="S" horiz-adv-x="1019" d="M82 301q96 -317 432 -317q109 0 188 28q236 88 236 367q0 174 -119 291q-43 43 -112.5 85t-165.5 85q-154 70 -205 110q-90 78 -90 183q0 117 86 188q80 68 200 68q115 0 187 -46q57 -33 98 -100l80 35q-105 192 -362 192h-3q-156 0 -262 -94q-109 -92 -108 -243 q0 -152 106 -244q63 -57 238 -135q92 -41 151.5 -74t87.5 -59q109 -96 109 -242q0 -154 -92 -234q-89 -77 -244 -77h-4q-276 0 -348 262z" />
<glyph unicode="T" horiz-adv-x="903" d="M92 1378h324v-1378h84v1378h323v84h-731v-84z" />
<glyph unicode="U" horiz-adv-x="1136" d="M156 365q0 -178 125 -283q119 -96 297 -96q184 0 296 94q130 107 130 285v1097h-84v-1097q0 -137 -105 -220q-95 -75 -233 -75h-4q-143 0 -238 73q-102 80 -102 222v1097h-82v-1097z" />
<glyph unicode="V" horiz-adv-x="1077" d="M76 1462l469 -1487l473 1487h-88l-385 -1208l-383 1208h-86z" />
<glyph unicode="W" horiz-adv-x="1794" d="M70 1462l469 -1482l366 1226l365 -1226l473 1482h-86l-383 -1196l-369 1223l-370 -1223l-383 1196h-82z" />
<glyph unicode="X" horiz-adv-x="1085" d="M68 0h94l385 678l389 -678h96l-430 750l406 712h-97l-362 -633l-361 633h-96l406 -706z" />
<glyph unicode="Y" horiz-adv-x="1046" d="M68 1462l415 -731v-731h84v731l418 731h-96l-365 -633l-360 633h-96z" />
<glyph unicode="Z" horiz-adv-x="1134" d="M80 0h985v84h-836l840 1378h-940v-86h789z" />
<glyph unicode="[" horiz-adv-x="438" d="M121 -94h227v69h-143v1500h137v71h-221v-1640z" />
<glyph unicode="\" horiz-adv-x="575" d="M47 1462l420 -1462h80l-418 1462h-82z" />
<glyph unicode="]" horiz-adv-x="438" d="M125 -25v-69h227v1640h-221v-71h139v-1500h-145z" />
<glyph unicode="^" horiz-adv-x="720" d="M84 772h53l230 422l225 -422h55l-248 576h-67z" />
<glyph unicode="_" horiz-adv-x="731" d="M0 -360v-74h754v74h-754z" />
<glyph unicode="`" horiz-adv-x="679" d="M186 1233l269 -272l51 47l-275 274z" />
<glyph unicode="a" horiz-adv-x="1044" d="M72 422q0 -184 127 -311q125 -125 309 -125q205 0 338 159v-145h84v846h-84v-148q-135 160 -338 160q-184 0 -311 -127q-125 -125 -125 -309zM154 422q0 147 104 252q102 102 250 102q145 0 249.5 -104.5t104.5 -249.5q0 -147 -104 -252q-102 -102 -250 -102 q-145 0 -249.5 104t-104.5 250z" />
<glyph unicode="b" horiz-adv-x="1058" d="M113 0h84v156q135 -170 346 -170q184 0 311 127q125 125 125 309t-127 311q-125 125 -309 125q-213 0 -346 -170v828h-84v-1516zM188 422q0 147 105 252q102 102 250 102q145 0 249.5 -104.5t104.5 -249.5q0 -147 -104 -252q-102 -102 -250 -102q-145 0 -250 104 t-105 250z" />
<glyph unicode="c" horiz-adv-x="897" d="M96 422q0 -188 125 -313t314 -125h4q141 0 254 75v105q-111 -98 -258 -98q-156 0 -256.5 100t-100.5 256q0 158 101 258q98 98 256 98q70 0 147 -26l57 -31l54 -35v100q-96 74 -258 74q-188 0 -313.5 -125t-125.5 -313z" />
<glyph unicode="d" horiz-adv-x="1067" d="M88 422q0 -184 127 -311q125 -125 309 -125q209 0 344 166v-152h84v1516h-84v-824q-141 166 -344 166q-184 0 -311 -127q-125 -125 -125 -309zM170 422q0 147 104 252q102 102 250 102q145 0 250 -104.5t105 -249.5q0 -147 -105 -252q-102 -102 -250 -102 q-145 0 -249.5 104t-104.5 250z" />
<glyph unicode="e" horiz-adv-x="1003" d="M70 422q0 -188 125 -313q123 -125 313 -125q80 0 143 20q166 53 246 205l-76 35q-70 -113 -157 -150q-68 -28 -150 -28h-6q-168 0 -264 102q-92 100 -92 272h792q0 186 -125 303q-123 117 -311 117q-190 0 -315 -125q-123 -123 -123 -313zM164 520q82 258 344 258 q125 0 221 -69q101 -72 121 -189h-686z" />
<glyph unicode="f" horiz-adv-x="555" d="M88 762h115v-762h84v762h200v84h-200v457q0 135 114 135l56 -6l55 -13v84q-31 14 -55 15q-12 4 -58 4q-197 0 -196 -195v-481h-115v-84z" />
<glyph unicode="g" horiz-adv-x="1044" d="M72 422q0 -184 127 -311q125 -125 309 -125q205 0 338 159v-125q0 -158 -88 -245q-86 -88 -244 -88q-117 0 -201 39q-106 49 -129 149h-84q68 -272 414 -272q186 0 301 114.5t115 300.5v828h-84v-148q-135 160 -338 160q-184 0 -311 -127q-125 -125 -125 -309zM154 422 q0 147 104 252q102 102 250 102q145 0 249.5 -104.5t104.5 -249.5q0 -147 -104 -252q-102 -102 -250 -102q-145 0 -249.5 104t-104.5 250z" />
<glyph unicode="h" horiz-adv-x="933" d="M152 0h84v551q0 102 75 164q74 61 176 61q250 0 250 -268v-510h84v518q0 342 -334 342q-176 0 -251 -125v783h-84v-1516z" />
<glyph unicode="i" horiz-adv-x="376" d="M125 1065q2 -31 20 -49q25 -18 48 -19q67 0 67 68q-16 68 -67 68q-68 -12 -68 -68zM150 0h83v846h-83v-846z" />
<glyph unicode="j" horiz-adv-x="378" d="M125 1065q2 -31 20 -49q25 -18 48 -19q67 0 67 68q-16 68 -67 68q-68 -12 -68 -68zM152 -369h84v1215h-84v-1215z" />
<glyph unicode="k" horiz-adv-x="854" d="M137 0h84v393l47 47l443 -440h110l-497 498l383 381h-119l-367 -365v1002h-84v-1516z" />
<glyph unicode="l" horiz-adv-x="393" d="M158 0h82v1516h-82v-1516z" />
<glyph unicode="m" horiz-adv-x="1316" d="M135 0h84v584q0 88 57 139q57 53 142 53q82 0 141 -55q57 -51 57 -137v-584h84v584q0 192 197 192h2q96 0 147.5 -57t51.5 -135v-584h84v584q0 129 -78 202q-78 72 -205 72q-166 0 -240 -133q-78 133 -241 133q-137 0 -199 -96v84h-84v-846z" />
<glyph unicode="n" horiz-adv-x="923" d="M135 0h84v514q0 121 64 191q60 69 177 69h3q242 0 242 -268v-506h83v514q0 162 -83.5 252t-241.5 90q-186 0 -244 -113v103h-84v-846z" />
<glyph unicode="o" horiz-adv-x="1019" d="M72 422q0 -184 127 -311q125 -125 309 -125t311 127q125 125 125 309t-127 311t-309 127q-184 0 -309 -129q-127 -127 -127 -309zM154 422q0 143 106 250q104 106 248 106q150 0 252 -104q102 -102 102 -252q0 -147 -104 -252q-102 -102 -250 -102q-145 0 -249.5 104 t-104.5 250z" />
<glyph unicode="p" horiz-adv-x="1050" d="M131 -397h84v555q137 -172 348 -172q184 0 311 127q125 125 125 309t-127 311q-125 125 -309 125q-217 0 -348 -172v160h-84v-1243zM209 422q0 147 104 252q102 102 250 102q145 0 250 -104.5t105 -249.5q0 -147 -105 -252q-102 -102 -250 -102q-145 0 -249.5 104 t-104.5 250z" />
<glyph unicode="q" horiz-adv-x="1028" d="M61 422q0 -184 127 -311q125 -125 310 -125q209 0 344 166v-549h84v1243h-84v-154q-139 166 -344 166q-184 0 -312 -127q-125 -125 -125 -309zM143 422q0 147 105 252q102 102 250 102q145 0 249.5 -104.5t104.5 -249.5q0 -147 -104 -252q-102 -102 -250 -102 q-145 0 -250 104t-105 250z" />
<glyph unicode="r" horiz-adv-x="634" d="M135 0h84v557q0 33 13.5 72t36 70.5t53 53t65.5 21.5q41 0 78 -14.5t70 -38.5l45 70q-51 37 -92.5 51t-104.5 14q-51 0 -94 -39t-70 -86v115h-84v-846z" />
<glyph unicode="s" horiz-adv-x="677" d="M59 162q98 -178 295 -178q115 0 197 69q80 67 80 178q0 115 -88 183q-23 16 -68 37.5t-115 46.5q-80 27 -116 55q-45 37 -45 94q0 129 147 129q109 0 178 -69l62 53q-98 98 -240 98q-102 0 -166 -63q-66 -61 -65 -148q0 -100 65 -153q45 -37 148 -74q55 -20 93 -35.5 t58 -28.5q68 -53 68 -125q0 -163 -191 -163h-2q-88 0 -139 38q-49 35 -84 99z" />
<glyph unicode="t" horiz-adv-x="512" d="M63 762h115v-762h84v762h197v84h-197v371h-84v-371h-115v-84z" />
<glyph unicode="u" horiz-adv-x="878" d="M125 317q0 -158 82 -245.5t231 -87.5q152 0 236 90q82 87 82 243v529h-82v-529q0 -251 -234 -251h-2q-121 0 -176 65q-53 66 -53 186v529h-84v-529z" />
<glyph unicode="v" horiz-adv-x="890" d="M55 846l400 -883l401 883h-94l-309 -674l-308 674h-90z" />
<glyph unicode="w" horiz-adv-x="1400" d="M59 846l379 -883l269 676l264 -676l383 883h-94l-283 -653l-270 679l-273 -682l-284 656h-91z" />
<glyph unicode="x" horiz-adv-x="739" d="M33 0h100l240 354l239 -354h99l-287 428l281 418h-99l-233 -350l-236 350h-98l283 -420z" />
<glyph unicode="y" horiz-adv-x="911" d="M57 846l357 -768l-219 -475h94l577 1243h-92l-311 -668l-316 668h-90z" />
<glyph unicode="z" horiz-adv-x="935" d="M94 0h764v84h-590l600 762h-739v-80h569z" />
<glyph unicode="{" horiz-adv-x="395" d="M16 727q47 -47 62 -76q31 -59 31 -108v-412q0 -137 59 -186q58 -49 197 -49v75q-102 0 -142 33q-39 31 -39 131v408q0 47 -26 98q-25 53 -58 86q84 72 84 184v375q0 94 41 135q39 39 137 39v76q-139 0 -196 -57q-57 -55 -57 -193v-375q0 -111 -93 -184z" />
<glyph unicode="|" horiz-adv-x="272" d="M111 -94h71v1640h-71v-1640z" />
<glyph unicode="}" horiz-adv-x="395" d="M31 -29v-75q139 0 198 49q57 49 58 186v412q0 53 32 110q25 45 60 74q-47 47 -62 72q-31 55 -30 112v375q0 131 -59.5 190.5t-194.5 59.5v-76q98 0 137 -39q41 -41 41 -135v-375q0 -61 22.5 -106t61.5 -78q-84 -90 -84 -184v-408q0 -100 -39 -133q-41 -31 -141 -31z" />
<glyph unicode="~" horiz-adv-x="878" d="M61 709l58 -60l39 35l35 23q51 25 108 24q43 0 86 -22l51 -27l84 -39q25 -10 82 -10q123 0 219 102l-65 56q-72 -74 -158 -74l-37 4l-35 10l-69 33l-82 37q-37 12 -76 12q-135 0 -240 -104z" />
<glyph unicode="&#xa1;" horiz-adv-x="417" d="M137 1245q0 -74 74 -74q74 13 74 74q-6 35 -23 51q-23 23 -51 23q-74 -12 -74 -74zM172 -152h82v1160h-82v-1160z" />
<glyph unicode="&#xa2;" horiz-adv-x="866" d="M78 719q0 -156 92 -268q113 -141 274 -142v-121h86v119l66 6l61 15q61 25 99 49v94q-121 -84 -226 -84v668q55 0 123 -29l54 -31l53 -34v100q-45 41 -107 59q-55 23 -123 23v100h-86v-102q-168 -20 -268 -137q-98 -115 -98 -285zM168 719q0 129 76 223q78 92 200 111 v-664q-127 20 -202 111q-74 88 -74 219z" />
<glyph unicode="&#xa3;" horiz-adv-x="970" d="M80 55l53 -57q51 49 84 63q63 27 117 25l47 -4l47 -12q27 -6 57 -25q96 -57 195 -57q78 0 143 37q29 20 52 38.5t43 38.5l-56 54q-86 -86 -182 -86q-43 0 -80 12l-78 35q-29 18 -73 37l-35 14l-31 2q63 63 106 149q41 88 41 181h230v88h-234q-20 76 -69 149l-107 160 q-80 119 -96 197l-6 65q0 231 268 232q117 0 184 -48q84 -55 84 -163h82q0 145 -104 223q-94 70 -246 70q-154 0 -254 -78q-104 -84 -104 -236q0 -72 35 -158l81 -145l76 -104q76 -102 88 -164h-213v-88h219q0 -166 -168 -334q-49 0 -108 -35q-57 -33 -88 -76z" />
<glyph unicode="&#xa5;" horiz-adv-x="1052" d="M68 1462l409 -721h-201v-84h207v-92h-207v-84h207v-481h84v481h209v84h-209v92h209v84h-203l412 721h-96l-365 -635l-360 635h-96z" />
<glyph unicode="&#xa6;" horiz-adv-x="272" d="M111 0h71v670h-71v-670zM111 893h71v653h-71v-653z" />
<glyph unicode="&#xa7;" horiz-adv-x="778" d="M76 707q0 -119 84 -207q82 -84 202 -101q217 -27 218 -235q0 -86 -58 -135q-55 -49 -141 -49q-90 0 -135 45q-47 47 -74 112l-76 -35q37 -96 108.5 -149t176.5 -53q125 0 209 71q82 70 82 193q0 188 -140 266q177 103 177 283q0 276 -316 327q-188 31 -188 199 q0 74 51 125q51 49 125 49q127 0 201 -135l61 41q-86 172 -262 172q-111 0 -188 -72q-74 -72 -74 -184q0 -152 145 -236q-88 -47 -123 -90q-66 -78 -65 -202zM170 717q0 94 57 153q57 61 150 62q239 0 239 -225q0 -96 -63 -152q-63 -53 -160 -53q-92 0 -157.5 59.5 t-65.5 155.5z" />
<glyph unicode="&#xa8;" horiz-adv-x="878" d="M242 1065q2 -31 20 -49q25 -18 47 -19q68 0 68 68q-16 68 -68 68q-68 -12 -67 -68zM522 1065q2 -31 21 -49q25 -18 47 -19q67 0 67 68q-16 68 -67 68q-68 -12 -68 -68z" />
<glyph unicode="&#xa9;" horiz-adv-x="1204" d="M70 797q0 -225 157 -383q156 -156 381 -156t383 158q156 160 156 381q0 225 -158 383q-160 156 -381 155q-225 0 -383 -157q-156 -156 -155 -381zM113 799q0 209 145 354q143 143 352 143t355 -145q143 -143 143 -352t-145 -355q-143 -143 -353 -143q-209 0 -354 145 q-143 143 -143 353zM342 807q0 -109 78 -180q76 -68 188 -68q123 0 195 72v49q-72 -80 -195 -80q-111 0 -168 62q-57 59 -57 145q0 94 66 149q63 55 159 56l60 -6q27 -2 57 -19l41 -20l37 -25v49l-41 25l-35 16q-41 20 -119 21q-115 0 -190 -68q-76 -63 -76 -178z" />
<glyph unicode="&#xaa;" horiz-adv-x="763" d="M102 688h582v60h-582v-60zM119 1122q0 -111 76 -186q74 -76 184 -76q129 0 203 96v-88h51v508h-51v-88q-78 96 -203 96q-111 0 -186 -75q-74 -78 -74 -187zM168 1122q0 86 63 150q61 63 148 63q86 0 149.5 -63.5t63.5 -149.5t-63.5 -149.5t-149.5 -63.5t-150 64 q-61 63 -61 149z" />
<glyph unicode="&#xab;" horiz-adv-x="899" d="M78 522l377 -379l43 43l-336 336l344 344l-41 43zM375 522l377 -379l43 43l-338 336l346 344l-43 43z" />
<glyph unicode="&#xac;" horiz-adv-x="802" d="M131 725h520v53h-520v-53zM205 168q0 -82 51 -133q53 -53 141 -53q86 0 140 51q53 53 53 135q0 127 -127 174q45 8 76 59q27 41 26 93q0 74 -47 121t-121 47q-76 0 -123 -47.5t-47 -120.5q0 -47 29 -95q27 -43 72 -57q-123 -47 -123 -174zM242 168q0 61 47 108 q45 45 108 46q66 0 111 -45.5t45 -108.5t-45 -107q-47 -43 -111 -43q-66 0 -110 43q-45 39 -45 107zM264 494q0 55 39 94q39 37 94 37t95 -39q36 -37 36 -92t-39 -95q-37 -37 -92 -37t-94 39q-39 37 -39 93zM272 1479h111v-621h37v660h-123z" />
<glyph unicode="&#xad;" horiz-adv-x="555" d="M37 500h432v84h-432v-84z" />
<glyph unicode="&#xae;" horiz-adv-x="817" d="M84 1104q0 -135 94 -229.5t230 -94.5q135 0 229 94.5t94 229.5t-94 229t-229 94t-229.5 -94t-94.5 -229zM115 1104q0 117 88 205t205 88t204.5 -88t87.5 -205t-88 -205t-204 -88q-117 0 -205 88t-88 205zM295 926h29v172h63l119 -172h37l-121 172h16q104 0 105 100 q0 45 -31 74q-27 27 -74 26h-143v-372zM324 1126v144h116q74 0 74 -72t-74 -72h-116z" />
<glyph unicode="&#xaf;" horiz-adv-x="804" d="M117 971h583v73h-583v-73z" />
<glyph unicode="&#xb0;" horiz-adv-x="434" d="M47 1260q0 -68 51.5 -119t118.5 -51q68 0 119 51t51 119t-51 119t-119 51t-119 -51.5t-51 -118.5zM90 1262q0 49 39 88t88 39t88 -39t39 -88t-39 -88t-88 -39t-88 38.5t-39 88.5z" />
<glyph unicode="&#xb1;" horiz-adv-x="794" d="M137 291h527v84h-527v-84zM137 662h209v-209h94v209h209v83h-209v209h-94v-209h-209v-83z" />
<glyph unicode="&#xb2;" horiz-adv-x="802" d="M209 856h397v37h-315l190 215q72 82 88 106q39 66 39 129q0 78 -57 127q-59 49 -135 50q-70 0 -127 -45q-55 -41 -66 -111h41q39 119 152 119q59 0 106 -41t47 -99q0 -55 -39 -114z" />
<glyph unicode="&#xb3;" horiz-adv-x="802" d="M227 999q39 -143 181 -143q84 0 135 51q53 49 53 131q0 139 -129 176q123 33 123 152q0 78 -51.5 123t-124.5 45q-72 0 -121 -43q-49 -39 -55 -113h43q18 117 133 117q57 0 94 -37q37 -35 37 -92l-8 -51l-25 -39q-35 -35 -94 -35h-39v-53h39l43 -8q18 -6 41 -25 q53 -41 53 -117q0 -61 -43 -104q-45 -41 -104 -41q-51 0 -91 35q-37 35 -49 71h-41z" />
<glyph unicode="&#xb4;" horiz-adv-x="835" d="M319 1010l50 -49l272 272l-49 49z" />
<glyph unicode="&#xb5;" horiz-adv-x="1607" d="M125 0h885v84h-701l420 475q57 66 94 110t56 66q133 172 133 350q0 174 -125 281q-125 109 -299 109q-203 0 -326 -136q-92 -104 -106 -211h92q23 94 80 158q94 106 260 107q135 0 237 -88q102 -90 103 -220q0 -133 -86 -256zM354 911q0 -68 51.5 -119t118.5 -51 q68 0 119 51t51 119t-51 119t-119 51t-119 -51t-51 -119zM397 913q0 49 39 88t88 39t88 -39t39 -88t-39 -88t-88 -39t-88 39t-39 88zM500 879q0 -18 13 -31.5t32 -13.5q18 0 31.5 13t13.5 32q0 18 -13.5 31.5t-31.5 13.5t-31.5 -13.5t-13.5 -31.5zM760 -264q84 -90 221 -90 q141 0 219 90l-37 45q-76 -76 -174 -76q-106 0 -186 80zM1092 911q0 -68 51 -119t119 -51t119 51t51 119t-51.5 119t-118.5 51q-68 0 -119 -51t-51 -119zM1135 913q0 49 38.5 88t88.5 39q49 0 88 -39t39 -88t-39 -88t-88 -39t-88 39t-39 88zM1239 872q0 -18 13.5 -31.5 t31.5 -13.5t31.5 13.5t13.5 31.5t-13 32t-32 14q-18 0 -31.5 -14t-13.5 -32z" />
<glyph unicode="&#xb6;" horiz-adv-x="1034" d="M100 1096q0 -168 113 -266.5t285 -98.5h137v-856h84v1587h-221q-170 0 -281 -98q-117 -104 -117 -268zM829 -125h84v1587h-84v-1587z" />
<glyph unicode="&#xb7;" horiz-adv-x="565" d="M141 664q2 -31 21 -50q25 -18 47 -18q67 0 67 68q-16 68 -67 67q-68 -12 -68 -67z" />
<glyph unicode="&#xb8;" horiz-adv-x="532" d="M147 -176v-82q57 -51 134 -51q53 0 85.5 32.5t32.5 83.5q0 84 -77 109l28 84h-92l-33 -100q74 -29 74 -72q0 -49 -57 -49l-49 14q-14 8 -25.5 15.5t-20.5 15.5z" />
<glyph unicode="&#xb9;" horiz-adv-x="802" d="M301 1479h111v-621h37v660h-123z" />
<glyph unicode="&#xba;" horiz-adv-x="763" d="M94 688h578v60h-578v-60zM121 1130q0 -111 75.5 -186.5t186.5 -75.5t186.5 75.5t75.5 186.5t-75.5 187t-186.5 76t-186.5 -76t-75.5 -187zM170 1130q0 86 63.5 149.5t149.5 63.5t149.5 -63.5t63.5 -149.5t-63.5 -149t-149.5 -63t-149.5 63t-63.5 149z" />
<glyph unicode="&#xbb;" horiz-adv-x="899" d="M111 866l344 -344l-336 -336l43 -43l377 379l-387 387zM418 866l344 -344l-336 -336l43 -43l377 379l-387 387z" />
<glyph unicode="&#xbc;" horiz-adv-x="802" d="M156 123h338v-125h38v125h58v37h-58v506zM162 725h520v53h-520v-53zM223 160l271 383v-383h-271zM301 1479h111v-621h37v660h-123z" />
<glyph unicode="&#xbd;" horiz-adv-x="802" d="M166 725h520v53h-520v-53zM217 0h397v37h-315l190 215q72 82 89 106q38 66 38 129q0 78 -57 127q-59 49 -135 50q-70 0 -127 -46q-55 -41 -66 -110h41q39 119 152 119q59 0 106.5 -41t47.5 -99q0 -55 -39 -114zM313 1479h111v-621h37v660h-123z" />
<glyph unicode="&#xbe;" horiz-adv-x="802" d="M147 725h523v53h-523v-53zM164 123h338v-125h39v125h57v37h-57v506zM227 999q39 -143 181 -143q84 0 135 51q53 49 53 131q0 139 -129 176q123 33 123 152q0 78 -51.5 123t-124.5 45q-72 0 -121 -43q-49 -39 -55 -113h43q18 117 133 117q57 0 94 -37q37 -35 37 -92 l-8 -51l-25 -39q-35 -35 -94 -35h-39v-53h39l43 -8q18 -6 41 -25q53 -41 53 -117q0 -61 -43 -104q-45 -41 -104 -41q-51 0 -91 35q-37 35 -49 71h-41zM231 160l271 383v-383h-271z" />
<glyph unicode="&#xbf;" horiz-adv-x="960" d="M76 147q0 -160 114 -239q98 -72 267 -72q296 1 409 273l-78 34q-29 -49 -57.5 -86t-56.5 -61q-94 -78 -217 -78q-119 0 -201 53q-96 61 -96 176q0 88 71 172q16 20 55.5 51t98.5 76l174 129q143 106 143 240q0 88 -61 141q-61 51 -149 52q-117 0 -179 -62l49 -67 q27 27 56 32q25 10 74 11q51 0 85.5 -29t34.5 -78q0 -106 -102 -180l-172 -125q-74 -53 -117 -86t-53 -47q-92 -104 -92 -230zM430 1253q12 -72 72 -71q71 12 71 71q-12 72 -71 72q-72 -12 -72 -72z" />
<glyph unicode="&#xc0;" horiz-adv-x="1296" d="M63 0h82l170 438h666l168 -438h84l-586 1509zM348 522l299 774l299 -774h-598zM414 1784l241 -244l47 41l-247 248z" />
<glyph unicode="&#xc1;" horiz-adv-x="1296" d="M63 0h82l170 438h666l168 -438h84l-586 1509zM348 522l299 774l299 -774h-598zM604 1583l39 -39l229 228l-41 40z" />
<glyph unicode="&#xc2;" horiz-adv-x="1296" d="M63 0h82l170 438h666l168 -438h84l-586 1509zM348 522l299 774l299 -774h-598zM403 1550l43 -43l205 203l205 -203l43 43l-248 248z" />
<glyph unicode="&#xc3;" horiz-adv-x="1286" d="M63 0h82l170 438h666l168 -438h84l-586 1509zM317 1593l58 -45q51 68 127 68q45 0 73 -12l60 -25q61 -37 158 -37q63 0 110 29l33 26l39 41l-60 45q-43 -43 -59 -49l-25 -8h-47l-71 8l-60 25q-10 6 -18 10t-17 8q-55 20 -106 21q-137 0 -195 -105zM348 522l299 774 l299 -774h-598z" />
<glyph unicode="&#xc4;" horiz-adv-x="1286" d="M63 0h82l170 438h666l168 -438h84l-586 1509zM348 522l299 774l299 -774h-598zM432 1630q2 -31 21 -49q25 -18 47 -18q67 -1 67 67q-16 68 -67 68q-68 -12 -68 -68zM713 1630q2 -31 20 -49q25 -18 47 -18q68 -1 68 67q-16 68 -68 68q-68 -12 -67 -68z" />
<glyph unicode="&#xc5;" horiz-adv-x="1296" d="M63 0h82l170 438h666l168 -438h84l-586 1509zM348 522l299 774l299 -774h-598zM508 1665q0 -57 41 -98t98 -41t98 41t41 98t-40.5 98t-98.5 41q-57 0 -98 -41t-41 -98zM545 1667q0 43 30 74q29 29 72 28q41 0 72 -30.5t31 -71.5q0 -39 -33 -72q-31 -33 -70 -32 q-47 0 -74 30q-29 29 -28 74z" />
<glyph unicode="&#xc6;" horiz-adv-x="1515" d="M59 0h82l299 670h260v-670h705v84h-621v678h621v84h-619v532h619v84h-694zM479 752l221 497v-497h-221z" />
<glyph unicode="&#xc7;" horiz-adv-x="1437" d="M102 731q0 -322 197 -526q219 -225 498 -225l-33 -76q27 -6 47 -31t20 -47q0 -49 -57 -49q-49 0 -82 39l-33 -68q57 -57 140 -57q125 0 125 123q0 63 -64 108l23 58q182 0 317 63l68 43l100 72v96q-119 -86 -197 -125q-135 -66 -317 -66q-293 0 -481 189 q-186 186 -187 479q0 293 188.5 481.5t479.5 188.5q170 0 326 -64q102 -43 188 -114v104q-84 66 -174 100q-152 55 -340 56q-332 0 -543 -211q-209 -209 -209 -541z" />
<glyph unicode="&#xc8;" horiz-adv-x="968" d="M145 0h703v84h-619v672h619v90h-619v532h619v84h-703v-1462zM254 1784l244 -244l45 41l-246 248z" />
<glyph unicode="&#xc9;" horiz-adv-x="968" d="M145 0h703v84h-619v672h619v90h-619v532h619v84h-703v-1462zM453 1579l43 -35l229 228l-43 45z" />
<glyph unicode="&#xca;" horiz-adv-x="968" d="M145 0h703v84h-619v672h619v90h-619v532h619v84h-703v-1462zM258 1591l43 -43l205 203l205 -203l41 43l-246 248z" />
<glyph unicode="&#xcb;" horiz-adv-x="968" d="M145 0h703v84h-619v672h619v90h-619v532h619v84h-703v-1462zM293 1630q2 -31 20 -49q25 -18 47 -18q68 -1 68 67q-16 68 -68 68q-68 -12 -67 -68zM573 1630q2 -31 21 -49q25 -18 47 -18q68 -1 68 67q-16 68 -68 68q-68 -12 -68 -68z" />
<glyph unicode="&#xcc;" horiz-adv-x="393" d="M-25 1784l244 -244l45 41l-246 248zM158 0h82v1462h-82v-1462z" />
<glyph unicode="&#xcd;" horiz-adv-x="393" d="M143 1583l41 -39l228 228l-39 40zM158 0h82v1462h-82v-1462z" />
<glyph unicode="&#xce;" horiz-adv-x="393" d="M-53 1550l45 -43l205 203l204 -203l41 43l-245 248zM158 0h82v1462h-82v-1462z" />
<glyph unicode="&#xcf;" horiz-adv-x="393" d="M-12 1630q2 -31 20 -49q25 -18 47 -18q68 -1 68 67q-16 68 -68 68q-68 -12 -67 -68zM158 0h82v1462h-82v-1462zM268 1630q2 -31 21 -49q25 -18 47 -18q67 -1 67 67q-16 68 -67 68q-68 -12 -68 -68z" />
<glyph unicode="&#xd0;" horiz-adv-x="1409" d="M66 694h90v-694h487q297 0 481 221q172 209 172 512q0 301 -174 508q-184 221 -479 221h-487v-684h-90v-84zM238 84v610h260v84h-260v602h405q260 0 420 -196q149 -183 149 -451q0 -301 -178 -481q-166 -168 -391 -168h-405z" />
<glyph unicode="&#xd1;" horiz-adv-x="1464" d="M158 0h82v1241l1093 -1266v1487h-84v-1269l-1091 1280v-1473zM410 1593l57 -45q51 68 127 68q45 0 74 -12l59 -25q61 -37 158 -37q63 0 110 29l33 26l39 41l-59 45q-43 -43 -60 -49l-24 -8h-47l-72 8l-60 25q-10 6 -18 10l-16 8q-55 20 -107 21q-137 0 -194 -105z" />
<glyph unicode="&#xd2;" d="M102 731q0 -332 211 -543q209 -209 541 -208q332 0 543 210q211 209 211 541t-211 543q-213 209 -543 209q-332 0 -543 -211q-209 -209 -209 -541zM186 731q0 293 188.5 481.5t479.5 188.5q295 0 483 -189q187 -186 187 -481q0 -297 -187 -483q-188 -184 -483 -185 q-293 0 -481 189q-186 186 -187 479zM596 1784l242 -244l47 41l-248 248z" />
<glyph unicode="&#xd3;" d="M102 731q0 -332 211 -543q209 -209 541 -208q332 0 543 210q211 209 211 541t-211 543q-213 209 -543 209q-332 0 -543 -211q-209 -209 -209 -541zM186 731q0 293 188.5 481.5t479.5 188.5q295 0 483 -189q187 -186 187 -481q0 -297 -187 -483q-188 -184 -483 -185 q-293 0 -481 189q-186 186 -187 479zM780 1583l39 -39l228 228l-39 40z" />
<glyph unicode="&#xd4;" d="M102 731q0 -332 211 -543q209 -209 541 -208q332 0 543 210q211 209 211 541t-211 543q-213 209 -543 209q-332 0 -543 -211q-209 -209 -209 -541zM186 731q0 293 188.5 481.5t479.5 188.5q295 0 483 -189q187 -186 187 -481q0 -297 -187 -483q-188 -184 -483 -185 q-293 0 -481 189q-186 186 -187 479zM600 1602l43 -43l205 202l205 -202l43 43l-248 247z" />
<glyph unicode="&#xd5;" d="M102 731q0 -332 211 -543q209 -209 541 -208q332 0 543 210q211 209 211 541t-211 543q-213 209 -543 209q-332 0 -543 -211q-209 -209 -209 -541zM186 731q0 293 188.5 481.5t479.5 188.5q295 0 483 -189q187 -186 187 -481q0 -297 -187 -483q-188 -184 -483 -185 q-293 0 -481 189q-186 186 -187 479zM502 1618l57 -45q51 68 127 67q45 0 74 -12l59 -24q61 -37 158 -37q63 0 110 28l33 27l39 41l-59 45q-43 -43 -60 -49l-24 -8h-47l-72 8l-59 24q-10 6 -18.5 10.5t-16.5 8.5q-55 20 -107 20q-137 0 -194 -104z" />
<glyph unicode="&#xd6;" d="M102 731q0 -332 211 -543q209 -209 541 -208q332 0 543 210q211 209 211 541t-211 543q-213 209 -543 209q-332 0 -543 -211q-209 -209 -209 -541zM186 731q0 293 188.5 481.5t479.5 188.5q295 0 483 -189q187 -186 187 -481q0 -297 -187 -483q-188 -184 -483 -185 q-293 0 -481 189q-186 186 -187 479zM639 1630q2 -31 20 -49q25 -18 48 -18q67 -1 67 67q-16 68 -67 68q-68 -12 -68 -68zM920 1630q2 -31 20 -49q25 -18 47 -18q68 -1 68 67q-16 68 -68 68q-68 -12 -67 -68z" />
<glyph unicode="&#xd7;" horiz-adv-x="1929" d="M14 475l19 -12v-176h84v166q98 -16 198.5 -18.5t198.5 20.5q-4 -14 -5 -36t0 -46.5t3 -48t2 -37.5h70q-29 -8 -56.5 -10.5t-56.5 -4.5l-2 -12l63 -20l-36 -7v-12q37 -16 73.5 -28.5t77.5 -22.5q-29 -10 -58.5 -17.5t-56.5 -21.5l35 -27l-26 -4l-2 -12l8 -2q-41 -4 -83 -6 t-83 -2l-2 -12l67 -11l-14 -16q82 -4 162 -29l4 13l-31 6q49 6 104.5 5t100.5 25q-8 2 -18.5 5.5t-18.5 3.5l-106 -5l-17 13q45 6 90.5 10t90.5 4v12l-222 -10l43 4l2 13l-67 16q29 16 60.5 22.5t62.5 16.5v12q-80 18 -154 49l43 6l2 13l-59 18q47 4 95 16.5t81 51.5v8 l-82 47v78q72 37 143.5 74.5t143.5 78.5l-2 13l-209 -15l-21 72q29 4 53.5 14.5t47.5 24.5l-2 10q-41 6 -78 15.5t-76 19.5v53l14 11l140 -17l6 4l30 -6l5 12l-15 4l43 5v12l-88 10l31 2l2 12q-43 12 -84 15.5t-82 19.5l14 60l13 10l123 -4l-82 14l-23 25q29 31 70 41t82 10 q84 0 141 -53.5t57 -139.5v-870h84v694l13 13l704 -707h117l-750 752l35 6l6 -35l29 31l-6 -27l10 -6l27 24l-4 -40l12 -5l24 37l-2 -82l11 -4l28 43l10 -37h13l12 39v-34h12q0 12 12.5 37.5t28 56t31.5 58.5t23 44l-2 -94l-27 -12l43 -15l-12 -123l12 -4l29 52l6 -17l37 74 q70 -18 140.5 -32.5t141.5 -24.5l-35 -31l52 -19l-88 -18l-3 -12l56 -25l4 12l-37 15l90 22v12l-57 19l35 22l59 -6v13q-31 2 -63.5 8t-57.5 28q10 20 30.5 37t39.5 29l-2 10q-53 27 -110.5 33t-115.5 6l21 43l-10 6l-31 -49h-2q2 55 8 111.5t6 111.5l-12 2 q-14 -57 -23.5 -113.5t-21.5 -111.5h-66l4 43l-12 2l-12 -45h-2v14q-2 43 12 84t29 82l-10 7l-35 -50l-15 17l-65 -131l-17 2l-14 -70l-6 35q-8 -16 -18.5 -29.5t-20.5 -25.5l-16 51l-13 -2l-2 -41l-22 -33l2 35l-10 4l-23 -23l19 45l-11 7l-43 -52q6 10 2 27.5t-8 28.5 l-2 -29l-47 -8l-2 2l700 698h-118l-654 -649v649h-84v-383q-41 35 -93 50.5t-105 15.5q-35 0 -59.5 -7.5t-48 -18.5t-46 -24.5t-51.5 -25.5l-60 21v4l-14 2l-37 30l-24 -14l-39 16l94 15v12l-82 16q27 -4 53.5 -0.5t53.5 11.5v12l-148 45h96t100.5 6t95.5 22.5t83 51.5 l-4 10q-109 0 -218.5 -3t-213.5 30l94 39l-4 12q-39 -8 -78 -9t-80 -3q14 12 60.5 16t99.5 6t102 2q51 0 76 4v13q-53 8 -105.5 17t-103.5 26q49 23 98.5 42t104.5 21l4 12l156 33l-2 12l-101 5q-43 2 -86 -4.5t-86 -2.5l35 29l-61 19l71 118l-12 9q-6 -10 -19.5 -32 t-27.5 -46.5t-23.5 -46t-7.5 -31.5l41 8l21 -6l-52 -25q8 -4 32 -7t34 -3q51 0 100 5t101 1q-37 -10 -75 -19t-77 -9l-45 8l-4 8q-45 2 -88 9t-88 13v-12l76 -12l-50 4v-12l136 -15q-53 -4 -109 -4q-55 0 -109 -6l181 -12h18l-104 -45v-12q41 -16 84 -25.5t86 -15.5 q-74 -2 -152 -3.5t-143 -39.5l6 -7h59q31 0 60 4l-62 -24v-12q59 -23 124 -30t128 -5l182 2q-35 -27 -76.5 -40t-85.5 -19.5t-89 -6.5h-89q-4 0 -15 1t-23.5 0t-20.5 -4t-2 -9q45 -10 88 -23.5t86 -27.5l-43 -6q-35 0 -68.5 6t-68.5 10l-2 -12q70 -23 141 -37 q-20 -4 -41.5 -8t-44.5 -4q-41 0 -80 1t-72.5 -5.5t-64.5 -24.5t-55 -59v84h-84v-654zM117 465v22q98 25 197.5 42.5t199.5 27.5v-90q-49 -10 -98 -14t-101 -4h-53q-37 0 -73.5 5t-71.5 11zM117 502v141q100 -4 198.5 -20.5t198.5 -30.5v-23q-200 -22 -397 -67zM117 655v215 q0 86 56 139.5t142 53.5q29 0 56.5 -6t52.5 -23q-4 -4 0 -8t11 -8t14.5 -7t11.5 -5q-6 0 -21.5 -1t-32 -3.5t-29.5 -5.5t-13 -7l6 -8h53t53 4q10 -12 17.5 -26.5t11.5 -30.5l-23 -21q-4 0 -14 1t-23 1q-12 0 -21 -2t-9 -8l16 -4v-12q23 0 42.5 -4.5t39.5 -10.5v-75 q-66 16 -131.5 28.5t-130.5 12.5q-8 0 -20.5 -2.5t-12.5 -12.5q0 -29 38 -46t88 -26.5t99.5 -13.5t69.5 -6v-39q-6 0 -25.5 1t-39.5 1t-37 -2t-17 -8q4 -4 20.5 -9t35 -10.5t36 -9.5t27.5 -6v-29q-100 6 -198.5 20.5t-198.5 18.5zM231 817q4 4 15 4q70 0 136 -12.5 t132 -28.5v-41q-31 2 -72 4t-80.5 9.5t-75.5 21.5t-55 43zM279 1546h36h-10h-8h-18zM440 893l27 -2zM446 68q41 0 84 6q-8 -2 -20 -6.5t-18 -4.5q-12 0 -23.5 1.5t-22.5 3.5zM461 676h53v-17q-14 4 -26.5 8.5t-26.5 8.5zM469 47q12 4 23 4h40q2 -4 13 -4h16q-8 -2 -15 -3 t-18 -1h-8q-14 0 -26.5 1t-24.5 3zM469 1106l8 8l19 -14q-4 0 -13.5 1t-13.5 5zM500 1083l4 2q6 -2 14 -6t12 -10h-4q-4 2 -14 2zM502 905l8 8l2 -8h-10zM524 885l2 -2zM524 1059q4 -2 10.5 -1t10.5 1l4 -2q-4 -4 -8 -5t-9 -3q-2 4 -4 5t-4 5zM543 1036q4 4 13 8.5t15 4.5 q-2 -4 -4 -7.5t-2 -7.5v-4h-8h-12zM545 63q12 2 24.5 4.5t24.5 4.5q4 -2 7 -3t7 -6h-43h-20zM555 588h2h-2zM561 1018h2h-2zM571 1061h2h-2zM598 291v82q20 -6 36.5 -16.5t33.5 -22.5q-27 -31 -70 -43zM598 477v8q27 14 46.5 36t25.5 50q2 0 12 1t20.5 2t18.5 2.5t8 5.5 t-8 6t-19 2h-18h-10v12q92 4 180 12q-63 -37 -126.5 -69.5t-129.5 -67.5zM598 500v20q0 4 2 11.5t4 11.5l-6 2v22q16 0 29.5 1t29.5 3q-6 -23 -22.5 -41t-36.5 -30zM598 596v4h64v-10q-4 0 -13.5 1t-21 2t-19.5 2t-10 1zM598 629v51q10 2 20 2t21 2q12 -16 16.5 -34t6.5 -38 h-52q8 0 8 6q0 4 -8 6.5t-12 4.5zM598 692v21q15 -7 31 -19q-8 0 -15.5 -1t-15.5 -1zM598 725v33q35 -10 69.5 -18.5t69.5 -14.5q-16 -14 -44 -19.5t-48 -9.5q-10 10 -22.5 17.5t-24.5 11.5zM598 893v2q4 -2 14 -2h-14zM631 995q2 4 6 9l10 -11q-4 0 -8 1t-8 1zM637 49v2 q29 0 57.5 1t57.5 5q-29 -6 -58 -6q-28 0 -57 -2zM666 852h2h4h-6zM700 864q4 0 13 4h8q-4 -4 -4 -8zM737 844l2 -2h4zM737 846l21 -4h-15h-4zM1307 676v35q4 0 8 6t8 10l6 -16q-6 -10 -11 -18.5t-11 -16.5zM1313 735l2 15l2 -9zM1331 737q12 16 19 23q0 -12 -3.5 -17.5 t-11.5 -17.5zM1341 709l7 12v-29zM1389 719q4 29 6 56t6 56q2 0 3 -1t3 -1t11 12.5t20.5 29t21.5 30.5t13 19q2 -10 2 -31q0 -6 -11.5 -29.5t-27 -52.5t-29.5 -54.5t-18 -33.5zM1450 909l20 39l3 -10zM1485 915v21l18 27q-4 -12 -9 -25t-9 -23zM1487 752h4h-4zM1487 764 q4 20 8 31l-4 -31h-4zM1493 643q4 23 5 46t3 46l43 -12q-6 -14 -23.5 -39t-27.5 -41zM1503 748v4h25q8 0 24 -4l-4 -15q-12 4 -23.5 7t-21.5 8zM1503 764l4 39q14 -2 27.5 -4t28.5 -4l6 -4q-2 -10 -10 -31q-14 4 -29 4h-27zM1567 729l4 14q18 -4 35.5 -9t35.5 -9l-2 -4 q0 -4 14.5 -8t32 -9.5t35 -8.5t23.5 -5q-47 8 -91 17.5t-87 21.5zM1575 756q2 8 4 15t2 15q6 -2 16 -2t15 -4l4 2q27 -6 57 -6l6 6q0 8 -24.5 10.5t-30.5 4.5l2 8h31q51 0 101 -6t97 -29q-14 -20 -47 -31l-4 -6q2 -16 -3 -18t-21 -2q-43 0 -102.5 16t-102.5 27zM1587 817 q10 37 16.5 74t14.5 76q-4 -39 -7 -76t-5 -74h-19zM1737 705q23 -4 28 -5q8 0 31 -10q-16 4 -30.5 7.5t-28.5 7.5z" />
<glyph unicode="&#xd8;" d="M102 731q0 -178 72 -338q74 -164 215 -266l-82 -119l74 -49l82 119q180 -98 391 -98q332 0 543 210q211 209 211 541q0 379 -273 594l86 123l-75 47l-84 -119q-180 106 -408 107q-332 0 -543 -211q-209 -209 -209 -541zM186 731q0 293 188.5 481.5t479.5 188.5 q192 0 360 -94l-776 -1110q-123 90 -186 225q-66 137 -66 309zM512 147l774 1108q238 -190 238 -524q0 -297 -187 -483q-188 -184 -483 -185q-184 0 -342 84z" />
<glyph unicode="&#xd9;" horiz-adv-x="1136" d="M156 365q0 -178 125 -283q119 -96 297 -96q184 0 296 94q130 107 130 285v1097h-84v-1097q0 -137 -105 -220q-96 -76 -237 -75q-143 0 -238 73q-102 80 -102 222v1097h-82v-1097zM354 1784l244 -244l45 41l-246 248z" />
<glyph unicode="&#xda;" horiz-adv-x="1136" d="M156 365q0 -178 125 -283q119 -96 297 -96q184 0 296 94q130 107 130 285v1097h-84v-1097q0 -137 -105 -220q-96 -76 -237 -75q-143 0 -238 73q-102 80 -102 222v1097h-82v-1097zM547 1583l41 -39l227 228l-39 40z" />
<glyph unicode="&#xdb;" horiz-adv-x="1136" d="M156 365q0 -178 125 -283q119 -96 297 -96q184 0 296 94q130 107 130 285v1097h-84v-1097q0 -137 -105 -220q-96 -76 -237 -75q-143 0 -238 73q-102 80 -102 222v1097h-82v-1097zM332 1602l45 -43l205 202l204 -202l41 43l-245 247z" />
<glyph unicode="&#xdc;" horiz-adv-x="1136" d="M156 365q0 -178 125 -283q119 -96 297 -96q184 0 296 94q130 107 130 285v1097h-84v-1097q0 -137 -105 -220q-96 -76 -237 -75q-143 0 -238 73q-102 80 -102 222v1097h-82v-1097zM367 1630q2 -31 20 -49q25 -18 47 -18q68 -1 68 67q-16 68 -68 68q-68 -12 -67 -68z M647 1630q2 -31 21 -49q25 -18 47 -18q67 -1 67 67q-16 68 -67 68q-68 -12 -68 -68z" />
<glyph unicode="&#xdd;" horiz-adv-x="1046" d="M68 1462l415 -731v-731h84v731l418 731h-96l-365 -633l-360 633h-96zM504 1579l43 -35l229 228l-43 45z" />
<glyph unicode="&#xde;" horiz-adv-x="1003" d="M156 0h82v375h274q168 0 283 102q114 98 114 266q0 166 -114.5 264.5t-282.5 98.5h-274v356h-82v-1462zM238 459v563h272q137 0 221 -70q94 -76 94 -209t-90 -211q-90 -74 -225 -73h-272z" />
<glyph unicode="&#xdf;" horiz-adv-x="1103" d="M45 762h117v-762h82v1098q0 281 258 280q109 0 186.5 -71.5t77.5 -176.5q0 -111 -72 -198q-72 -86 -182 -86v-82q438 0 438 -334q0 -141 -84 -242q-90 -104 -227 -104h-233v-84h231q186 0 295 123q102 119 102 307q0 182 -114 291q-94 88 -234 106q164 109 164 303 q0 141 -102 238q-104 94 -246 94q-164 0 -252 -100q-88 -96 -88 -262v-254h-117v-84z" />
<glyph unicode="&#xe0;" horiz-adv-x="1044" d="M72 422q0 -184 127 -311q125 -125 309 -125q205 0 338 159v-145h84v846h-84v-148q-135 160 -338 160q-184 0 -311 -127q-125 -125 -125 -309zM154 422q0 147 104 252q102 102 250 102q145 0 249.5 -104.5t104.5 -249.5q0 -147 -104 -252q-102 -102 -250 -102 q-145 0 -249.5 104t-104.5 250zM262 1233l268 -272l52 47l-275 274z" />
<glyph unicode="&#xe1;" horiz-adv-x="1044" d="M72 422q0 -184 127 -311q125 -125 309 -125q205 0 338 159v-145h84v846h-84v-148q-135 160 -338 160q-184 0 -311 -127q-125 -125 -125 -309zM154 422q0 147 104 252q102 102 250 102q145 0 249.5 -104.5t104.5 -249.5q0 -147 -104 -252q-102 -102 -250 -102 q-145 0 -249.5 104t-104.5 250zM442 1008l52 -47l268 272l-45 49z" />
<glyph unicode="&#xe2;" horiz-adv-x="1044" d="M72 422q0 -184 127 -311q125 -125 309 -125q205 0 338 159v-145h84v846h-84v-148q-135 160 -338 160q-184 0 -311 -127q-125 -125 -125 -309zM154 422q0 147 104 252q102 102 250 102q145 0 249.5 -104.5t104.5 -249.5q0 -147 -104 -252q-102 -102 -250 -102 q-145 0 -249.5 104t-104.5 250zM252 1016l45 -45l205 203l205 -203l41 45l-246 246z" />
<glyph unicode="&#xe3;" horiz-adv-x="1044" d="M72 422q0 -184 127 -311q125 -125 309 -125q205 0 338 159v-145h84v846h-84v-148q-135 160 -338 160q-184 0 -311 -127q-125 -125 -125 -309zM154 422q0 147 104 252q102 102 250 102q145 0 249.5 -104.5t104.5 -249.5q0 -147 -104 -252q-102 -102 -250 -102 q-145 0 -249.5 104t-104.5 250zM186 1051l56 -45q63 68 139 67l61 -8q14 -4 28.5 -11t31.5 -18q55 -37 145 -37q70 0 123 29l33 27l39 41l-58 45q-51 -57 -141 -58l-63 9l-60 26q-31 20 -57 29q-16 4 -35.5 6t-46.5 2q-137 0 -195 -104z" />
<glyph unicode="&#xe4;" horiz-adv-x="1044" d="M72 422q0 -184 127 -311q125 -125 309 -125q205 0 338 159v-145h84v846h-84v-148q-135 160 -338 160q-184 0 -311 -127q-125 -125 -125 -309zM154 422q0 147 104 252q102 102 250 102q145 0 249.5 -104.5t104.5 -249.5q0 -147 -104 -252q-102 -102 -250 -102 q-145 0 -249.5 104t-104.5 250zM283 1065q2 -31 20 -49q25 -18 47 -19q68 0 68 68q-16 68 -68 68q-68 -12 -67 -68zM563 1065q2 -31 21 -49q25 -18 47 -19q67 0 67 68q-16 68 -67 68q-68 -12 -68 -68z" />
<glyph unicode="&#xe5;" horiz-adv-x="1044" d="M72 422q0 -184 127 -311q125 -125 309 -125q205 0 338 159v-145h84v846h-84v-148q-135 160 -338 160q-184 0 -311 -127q-125 -125 -125 -309zM154 422q0 147 104 252q102 102 250 102q145 0 249.5 -104.5t104.5 -249.5q0 -147 -104 -252q-102 -102 -250 -102 q-145 0 -249.5 104t-104.5 250zM330 1102q0 -68 51 -119t119 -51t119 51t51 119t-51.5 119t-118.5 51q-68 0 -119 -51.5t-51 -118.5zM373 1104q0 49 39 88t88 39t88 -39t39 -88t-39 -88t-88 -39t-88 39t-39 88z" />
<glyph unicode="&#xe6;" horiz-adv-x="1798" d="M72 422q0 -184 127 -311q125 -125 309 -125q205 0 338 159v-145h84v160q127 -176 360 -176q80 0 144 20q166 53 245 205l-75 35q-70 -113 -158 -150q-70 -29 -156 -28q-168 0 -264 102q-92 100 -92 272h792q0 188 -124 301q-125 115 -312 115q-238 0 -360 -176v166h-84 v-148q-135 160 -338 160q-184 0 -311 -127q-125 -125 -125 -309zM154 422q0 147 104 252q102 102 250 102q145 0 249.5 -104.5t104.5 -249.5q0 -147 -104 -252q-102 -102 -250 -102q-145 0 -249.5 104t-104.5 250zM946 520q82 254 344 254q152 0 248 -90q74 -70 94 -164 h-686z" />
<glyph unicode="&#xe7;" horiz-adv-x="897" d="M96 422q0 -178 108.5 -299t284.5 -139l-26 -80l39 -31q20 -20 20 -43l-4 -16l-6 -13q-16 -16 -33 -16q-23 0 -41 12l-32 29l-27 -72q43 -51 104 -51q47 0 86 33q37 33 37 80q-12 80 -55 100l27 70q82 0 155 37l60 36v111l-64 -51q-88 -51 -194 -51q-154 0 -254.5 100 t-100.5 254q0 156 101 256q98 100 254 100q109 0 196 -51l31 -25l31 -26v110l-66 37q-92 37 -192 37q-188 0 -314 -125q-125 -123 -125 -313z" />
<glyph unicode="&#xe8;" horiz-adv-x="1003" d="M70 422q0 -188 125 -313q123 -125 313 -125q80 0 143 20q166 53 246 205l-76 35q-70 -113 -157 -150q-70 -29 -156 -28q-168 0 -264 102q-92 100 -92 272h792q0 186 -125 303q-123 117 -311 117q-190 0 -315 -125q-123 -123 -123 -313zM164 520q82 258 344 258 q125 0 221 -69q101 -72 121 -189h-686zM279 1233l268 -272l51 47l-274 274z" />
<glyph unicode="&#xe9;" horiz-adv-x="1003" d="M70 422q0 -188 125 -313q123 -125 313 -125q80 0 143 20q166 53 246 205l-76 35q-70 -113 -157 -150q-70 -29 -156 -28q-168 0 -264 102q-92 100 -92 272h792q0 186 -125 303q-123 117 -311 117q-190 0 -315 -125q-123 -123 -123 -313zM164 520q82 258 344 258 q125 0 221 -69q101 -72 121 -189h-686zM410 1008l49 -47l270 272l-45 49z" />
<glyph unicode="&#xea;" horiz-adv-x="1003" d="M70 422q0 -188 125 -313q123 -125 313 -125q80 0 143 20q166 53 246 205l-76 35q-70 -113 -157 -150q-70 -29 -156 -28q-168 0 -264 102q-92 100 -92 272h792q0 186 -125 303q-123 117 -311 117q-190 0 -315 -125q-123 -123 -123 -313zM164 520q82 258 344 258 q125 0 221 -69q101 -72 121 -189h-686zM268 1016l43 -45l205 203l205 -203l41 45l-246 246z" />
<glyph unicode="&#xeb;" horiz-adv-x="1003" d="M70 422q0 -188 125 -313q123 -125 313 -125q80 0 143 20q166 53 246 205l-76 35q-70 -113 -157 -150q-70 -29 -156 -28q-168 0 -264 102q-92 100 -92 272h792q0 186 -125 303q-123 117 -311 117q-190 0 -315 -125q-123 -123 -123 -313zM164 520q82 258 344 258 q125 0 221 -69q101 -72 121 -189h-686zM297 1065q2 -31 20 -49q25 -18 48 -19q67 0 67 68q-16 68 -67 68q-68 -12 -68 -68zM578 1065q2 -31 20 -49q25 -18 47 -19q68 0 68 68q-16 68 -68 68q-68 -12 -67 -68z" />
<glyph unicode="&#xec;" horiz-adv-x="376" d="M-78 1233l271 -272l49 47l-273 274zM150 0h83v846h-83v-846z" />
<glyph unicode="&#xed;" horiz-adv-x="376" d="M150 0h83v846h-83v-846zM150 1008l51 -47l270 272l-47 49z" />
<glyph unicode="&#xee;" horiz-adv-x="522" d="M16 1016l45 -45l205 203l205 -203l41 45l-246 246zM219 0h84v846h-84v-846z" />
<glyph unicode="&#xef;" horiz-adv-x="376" d="M-20 1065q12 -68 67 -68q68 0 68 68q-16 68 -68 68q-68 -16 -67 -68zM150 0h83v846h-83v-846zM260 1065q2 -31 21 -49q25 -18 47 -19q67 0 67 68q-16 68 -67 68q-68 -12 -68 -68z" />
<glyph unicode="&#xf0;" horiz-adv-x="1019" d="M72 422q0 -184 127 -311q125 -125 309 -125t311 127q125 125 125 309q0 299 -76 477q-66 150 -215 283l187 116l-82 54l-180 -113q-104 74 -216 104l-73 -71l104 -43l92 -47l-178 -113l82 -53l176 110q209 -152 260 -405q-131 137 -317 137q-184 0 -311 -127 q-125 -125 -125 -309zM154 422q0 147 104 252q102 102 250 102q145 0 249.5 -104.5t104.5 -249.5q0 -147 -104 -252q-102 -102 -250 -102q-145 0 -249.5 104t-104.5 250z" />
<glyph unicode="&#xf1;" horiz-adv-x="923" d="M131 1051l57 -45q51 68 127 67q45 0 74 -12l60 -25q61 -37 157 -37q63 0 111 29l33 27l38 41l-59 45q-43 -43 -59 -49l-25 -9h-47l-72 9l-59 24q-10 6 -18.5 10t-16.5 9q-55 20 -106 20q-137 0 -195 -104zM135 0h84v514q0 121 64 191q61 70 180 69q242 0 242 -268v-506 h83v514q0 162 -83.5 252t-241.5 90q-186 0 -244 -113v103h-84v-846z" />
<glyph unicode="&#xf2;" horiz-adv-x="1019" d="M72 422q0 -184 127 -311q125 -125 309 -125t311 127q125 125 125 309t-127 311t-309 127q-184 0 -309 -129q-127 -127 -127 -309zM154 422q0 143 106 250q104 106 248 106q150 0 252 -104q102 -102 102 -252q0 -147 -104 -252q-102 -102 -250 -102q-145 0 -249.5 104 t-104.5 250zM276 1233l269 -272l51 47l-274 274z" />
<glyph unicode="&#xf3;" horiz-adv-x="1019" d="M72 422q0 -184 127 -311q125 -125 309 -125t311 127q125 125 125 309t-127 311t-309 127q-184 0 -309 -129q-127 -127 -127 -309zM154 422q0 143 106 250q104 106 248 106q150 0 252 -104q102 -102 102 -252q0 -147 -104 -252q-102 -102 -250 -102q-145 0 -249.5 104 t-104.5 250zM418 1008l51 -47l268 272l-45 49z" />
<glyph unicode="&#xf4;" horiz-adv-x="1019" d="M72 422q0 -184 127 -311q125 -125 309 -125t311 127q125 125 125 309t-127 311t-309 127q-184 0 -309 -129q-127 -127 -127 -309zM154 422q0 143 106 250q104 106 248 106q150 0 252 -104q102 -102 102 -252q0 -147 -104 -252q-102 -102 -250 -102q-145 0 -249.5 104 t-104.5 250zM252 1016l45 -45l205 203l205 -203l41 45l-246 246z" />
<glyph unicode="&#xf5;" horiz-adv-x="1019" d="M72 422q0 -184 127 -311q125 -125 309 -125t311 127q125 125 125 309t-127 311t-309 127q-184 0 -309 -129q-127 -127 -127 -309zM154 422q0 143 106 250q104 106 248 106q150 0 252 -104q102 -102 102 -252q0 -147 -104 -252q-102 -102 -250 -102q-145 0 -249.5 104 t-104.5 250zM168 1051l57 -45q51 68 127 67q45 0 74 -12l59 -25q61 -37 158 -37q63 0 111 29l32 27l39 41l-59 45q-43 -43 -59 -49l-25 -9h-47l-72 9l-59 24q-10 6 -18.5 10t-16.5 9q-55 20 -107 20q-137 0 -194 -104z" />
<glyph unicode="&#xf6;" horiz-adv-x="1019" d="M72 422q0 -184 127 -311q125 -125 309 -125t311 127q125 125 125 309t-127 311t-309 127q-184 0 -309 -129q-127 -127 -127 -309zM154 422q0 143 106 250q104 106 248 106q150 0 252 -104q102 -102 102 -252q0 -147 -104 -252q-102 -102 -250 -102q-145 0 -249.5 104 t-104.5 250zM291 1065q2 -31 20 -49q25 -18 47 -19q68 0 68 68q-16 68 -68 68q-68 -12 -67 -68zM571 1065q2 -31 21 -49q25 -18 47 -19q68 0 68 68q-16 68 -68 68q-68 -12 -68 -68z" />
<glyph unicode="&#xf7;" horiz-adv-x="741" d="M117 489h526v105h-526v-105zM311 299q2 -31 21 -49q25 -18 47 -19q67 0 67 68q-16 68 -67 68q-68 -12 -68 -68zM311 780q2 -31 21 -49q25 -18 47 -18q67 -1 67 67q-16 68 -67 68q-68 -12 -68 -68z" />
<glyph unicode="&#xf8;" horiz-adv-x="1019" d="M72 422q0 -207 157 -336l-73 -106l69 -52l76 109q94 -51 207 -51q184 0 311 127q125 125 125 309q0 193 -143 323l84 121l-74 49l-82 -116q-102 59 -221 59q-184 0 -311 -127q-125 -125 -125 -309zM154 422q0 147 104 252q102 102 250 102q90 0 174 -45l-406 -577 q-123 106 -122 268zM350 104l404 574q108 -102 108 -256q0 -147 -104 -252q-102 -102 -250 -102l-82 8l-39 12z" />
<glyph unicode="&#xf9;" horiz-adv-x="878" d="M125 317q0 -158 82 -245.5t231 -87.5q152 0 236 90q82 87 82 243v529h-82v-529q0 -252 -236 -251q-121 0 -176 65q-53 66 -53 186v529h-84v-529zM180 1233l269 -272l51 47l-275 274z" />
<glyph unicode="&#xfa;" horiz-adv-x="878" d="M125 317q0 -158 82 -245.5t231 -87.5q152 0 236 90q82 87 82 243v529h-82v-529q0 -252 -236 -251q-121 0 -176 65q-53 66 -53 186v529h-84v-529zM399 1008l50 -47l270 272l-45 49z" />
<glyph unicode="&#xfb;" horiz-adv-x="878" d="M125 317q0 -158 82 -245.5t231 -87.5q152 0 236 90q82 87 82 243v529h-82v-529q0 -252 -236 -251q-121 0 -176 65q-53 66 -53 186v529h-84v-529zM193 1016l43 -45l204 203l205 -203l43 45l-248 246z" />
<glyph unicode="&#xfc;" horiz-adv-x="878" d="M125 317q0 -158 82 -245.5t231 -87.5q152 0 236 90q82 87 82 243v529h-82v-529q0 -252 -236 -251q-121 0 -176 65q-53 66 -53 186v529h-84v-529zM229 1065q2 -31 21 -49q25 -18 47 -19q68 0 68 68q-16 68 -68 68q-68 -12 -68 -68zM510 1065q2 -31 20 -49q25 -18 48 -19 q67 0 67 68q-16 68 -67 68q-68 -12 -68 -68z" />
<glyph unicode="&#xfd;" d="M102 731q0 -178 72 -338q74 -164 215 -266l-82 -119l74 -49l82 119q180 -98 391 -98q332 0 543 210q211 209 211 541q0 379 -273 594l86 123l-75 47l-84 -119q-180 106 -408 107q-332 0 -543 -211q-209 -209 -209 -541zM186 731q0 293 189 481q184 188 479 189 q192 0 360 -94l-776 -1110q-123 90 -186 225q-66 137 -66 309zM471 850q0 -68 51 -119t119 -51t119 51t51 119t-51 119t-119 51t-119 -51t-51 -119zM512 147l774 1108q141 -115 197 -274q-45 39 -105 39q-68 0 -119 -51t-51 -119t51.5 -119t118.5 -51q68 0 119 51 q15 15 27 33v-33q0 -297 -187 -483q-188 -184 -483 -185q-184 0 -342 84zM514 852q0 49 39 88t88 39t88 -39t39 -88t-39 -88t-88 -39t-88 39t-39 88zM616 817q0 -18 13.5 -31.5t32.5 -13.5q18 0 31.5 13.5t13.5 31.5t-13.5 31.5t-31.5 13.5t-32 -13.5t-14 -31.5zM821 309 q84 -90 221 -90q142 0 220 90l-37 45q-76 -76 -174 -75q-106 0 -187 79zM1251 852q0 49 39 88t88 39t88 -39t39 -88t-39 -88t-88 -39t-88 39t-39 88zM1356 811q0 -18 13 -31.5t32 -13.5q18 0 31.5 13.5t13.5 31.5t-13.5 31.5t-31.5 13.5t-31.5 -13.5t-13.5 -31.5z" />
<glyph unicode="&#xfe;" horiz-adv-x="1050" d="M131 -397h84v555q137 -172 348 -172q184 0 311 127q125 125 125 309t-127 311q-125 125 -309 125q-217 0 -348 -172v830h-84v-1913zM209 422q0 147 104 252q102 102 250 102q145 0 250 -104.5t105 -249.5q0 -147 -105 -252q-102 -102 -250 -102q-145 0 -249.5 104 t-104.5 250z" />
<glyph unicode="&#xff;" horiz-adv-x="911" d="M57 846l357 -768l-219 -475h94l577 1243h-92l-311 -668l-316 668h-90zM262 1065q2 -31 21 -49q25 -18 47 -19q67 0 67 68q-16 68 -67 68q-68 -12 -68 -68zM543 1065q2 -31 20 -49q25 -18 47 -19q68 0 68 68q-16 68 -68 68q-68 -12 -67 -68z" />
<glyph unicode="&#x152;" horiz-adv-x="2351" d="M102 731q0 -332 211 -543q209 -209 541 -208q223 0 391 96q178 100 279 291v-367h702v84h-618v672h618v90h-618v532h618v84h-702v-366q-96 188 -279 290q-174 96 -391 97q-332 0 -543 -211q-209 -209 -209 -541zM186 731q0 293 188.5 481.5t479.5 188.5q295 0 483 -189 q187 -186 187 -481q0 -297 -187 -483q-188 -184 -483 -185q-293 0 -481 189q-186 186 -187 479z" />
<glyph unicode="&#x153;" horiz-adv-x="1808" d="M72 422q0 -184 127 -311q125 -125 309 -125q127 0 235 67q104 66 158 183q55 -119 162 -187q109 -66 240 -65q80 0 143 20q166 53 246 205l-76 35q-70 -113 -158 -150q-70 -29 -155 -28q-168 0 -265 102q-92 100 -92 272h793q0 188 -125 301q-125 115 -311 115 q-133 0 -242 -65.5t-160 -182.5q-57 113 -164 183q-104 68 -229 67q-184 0 -311 -127q-125 -125 -125 -309zM154 422q0 147 104 252q102 102 250 102q145 0 249.5 -104.5t104.5 -249.5q0 -147 -104 -252q-102 -102 -250 -102q-145 0 -249.5 104t-104.5 250zM958 520 q82 254 345 254q152 0 247 -90q75 -70 95 -164h-687z" />
<glyph unicode="&#x178;" horiz-adv-x="1046" d="M68 1462l415 -731v-731h84v731l418 731h-96l-365 -633l-360 633h-96zM309 1630q2 -31 21 -49q25 -18 47 -18q67 -1 67 67q-16 68 -67 68q-68 -12 -68 -68zM590 1630q2 -31 20 -49q25 -18 47 -18q68 -1 68 67q-16 68 -68 68q-68 -12 -67 -68z" />
<glyph unicode="&#x2c6;" horiz-adv-x="774" d="M147 1016l41 -45l205 203l205 -203l41 45l-246 246z" />
<glyph unicode="&#x2dc;" horiz-adv-x="866" d="M115 1051l57 -45q51 68 127 67q45 0 74 -12l59 -25q61 -37 158 -37q63 0 110 29l33 27l39 41l-59 45q-43 -43 -60 -49l-24 -9h-47l-72 9l-59 24q-10 6 -18.5 10t-16.5 9q-55 20 -107 20q-137 0 -194 -104z" />
<glyph unicode="&#x2000;" horiz-adv-x="924" />
<glyph unicode="&#x2001;" horiz-adv-x="1849" />
<glyph unicode="&#x2002;" horiz-adv-x="924" />
<glyph unicode="&#x2003;" horiz-adv-x="1849" />
<glyph unicode="&#x2004;" horiz-adv-x="616" />
<glyph unicode="&#x2005;" horiz-adv-x="462" />
<glyph unicode="&#x2006;" horiz-adv-x="308" />
<glyph unicode="&#x2007;" horiz-adv-x="308" />
<glyph unicode="&#x2008;" horiz-adv-x="231" />
<glyph unicode="&#x2009;" horiz-adv-x="369" />
<glyph unicode="&#x200a;" horiz-adv-x="102" />
<glyph unicode="&#x2010;" horiz-adv-x="555" d="M37 500h432v84h-432v-84z" />
<glyph unicode="&#x2011;" horiz-adv-x="555" d="M37 500h432v84h-432v-84z" />
<glyph unicode="&#x2012;" horiz-adv-x="555" d="M37 500h432v84h-432v-84z" />
<glyph unicode="&#x2013;" horiz-adv-x="761" d="M86 500h596v84h-596v-84z" />
<glyph unicode="&#x2014;" horiz-adv-x="1263" d="M106 500h1065v84h-1065v-84z" />
<glyph unicode="&#x2018;" horiz-adv-x="333" d="M117 1155h108v148h-67v92q0 55 37 96h-41q-37 -29 -37 -96v-240z" />
<glyph unicode="&#x2019;" horiz-adv-x="323" d="M129 1360h68v-92q0 -57 -37 -97h41q37 46 37 97v239h-109v-147z" />
<glyph unicode="&#x201a;" horiz-adv-x="323" d="M129 123h68v-92q0 -57 -37 -97h41q20 14 26 43q11 25 11 54v239h-109v-147z" />
<glyph unicode="&#x201c;" horiz-adv-x="585" d="M125 1155h108v148h-67v92q0 55 37 96h-41q-37 -29 -37 -96v-240zM360 1155h109v148h-68v92q0 55 37 96h-41q-37 -29 -37 -96v-240z" />
<glyph unicode="&#x201d;" horiz-adv-x="616" d="M135 1360h68v-92q0 -57 -37 -97h41q37 46 37 97v239h-109v-147zM371 1360h67v-92q0 -57 -37 -97h41q37 46 37 97v239h-108v-147z" />
<glyph unicode="&#x201e;" horiz-adv-x="616" d="M135 123h68v-92q0 -57 -37 -97h41q20 14 26 43q11 25 11 54v239h-109v-147zM371 123h67v-92q0 -57 -37 -97h41q20 14 27 43q10 25 10 54v239h-108v-147z" />
<glyph unicode="&#x2022;" horiz-adv-x="602" d="M98 672q0 -72 49 -121q51 -49 121 -49q72 0 121 49t49 121q0 68 -49 121q-49 49 -121 49q-70 0 -121 -49q-49 -53 -49 -121z" />
<glyph unicode="&#x2026;" horiz-adv-x="856" d="M-8 55q2 -31 20 -49q25 -18 47 -18q68 -1 68 67q-16 68 -68 68q-68 -12 -67 -68zM285 55q2 -31 20 -49q25 -18 47 -18q68 -1 68 67q-16 68 -68 68q-68 -12 -67 -68zM578 55q2 -31 20 -49q25 -18 47 -18q68 -1 68 67q-16 68 -68 68q-68 -12 -67 -68z" />
<glyph unicode="&#x202f;" horiz-adv-x="369" />
<glyph unicode="&#x2039;" horiz-adv-x="575" d="M53 522l377 -379l43 43l-338 336l346 344l-43 43z" />
<glyph unicode="&#x203a;" horiz-adv-x="575" d="M92 866l344 -344l-336 -336l41 -43l379 379l-387 387z" />
<glyph unicode="&#x205f;" horiz-adv-x="462" />
<glyph unicode="&#x20ac;" horiz-adv-x="1437" d="M2 559h137q39 -215 195 -371q209 -209 540 -208q29 0 55.5 1t49.5 3q197 18 311 102l99 72v96q-119 -86 -197 -125q-135 -66 -318 -66q-293 0 -481 189q-127 127 -168 307h1137v82h-1151q-2 23 -3 45.5t-1 44.5q0 20 1 40t3 38h1151v84h-1139q37 186 172 319 q184 188 479 189q170 0 326 -64q102 -43 189 -114v104q-84 66 -175 100q-152 55 -340 56q-332 0 -542 -211q-156 -156 -195 -379h-135v-84h123q-2 -18 -2 -39v-39q0 -23 1 -45t3 -45h-125v-82z" />
<glyph unicode="&#x2122;" horiz-adv-x="690" d="M80 1434h104v-316h15v316h104v12h-223v-12zM293 1120h14l62 283l102 -299l102 299l58 -283h14l-67 330l-107 -303l-104 303z" />
<glyph unicode="&#x25fc;" horiz-adv-x="849" d="M0 0v850h850v-850h-850z" />
</font>
</defs>
</svg>
